金龙论坛

 找回密码
 立即注册
查看: 5321|回复: 63

[种子下载] 【颐和园】(全六集)[中文字幕]2010.HDTV.720p.x264.AC3-CnSCG 7.2G

  [复制链接]
发表于 2013-9-15 23:19:00 | 显示全部楼层 |阅读模式
s4581459.jpg
央视纪录片《故宫》原班人马历时三年隆重推出的又一部力作———六集电视纪录片《颐和园》将于12月26日起,每晚10:28在央视一套播出。

  记者获悉,《颐和园》记述了颐和园前身清漪园的兴建、毁灭与重建的沧桑变化。按照中国传统文化,紫禁城代表着“礼”,颐和园则代表着“乐”,如今《故宫》和《颐和园》的拍摄完成,也代表着“礼”“乐”结合,完成了中国古典建筑和文化的一个篇章。

  世界上最长的长廊、与众不同的听鹂馆小戏台、造型奇特的建筑“扬仁风”、仿苏州山塘街的买卖街,它们背后隐藏着怎样的故事?清漪园的山水建筑又如何体现古典园林艺术的精髓?这些历史悬念将在《颐和园》中一一解开。

  《万寿庆典图》

  描绘清漪园的惟一图卷

  由于当年建造清漪园的图纸、烫样等重要的历史资料大部分已经毁于英法联军的大火,清漪园的现存资料十分稀少,它的真实面貌更是无人得见。在这次拍摄过程中,通过艰苦努力,我们发掘了大量不为人知的历史信息,重新揭示了一些历史悬疑,为清漪园相关历史研究提出新的素材、角度和视点。比如,摄制组发现了一张未得到世人瞩目的古图《万寿庆典图》,这张图描绘了乾隆的母亲崇庆皇太后万寿庆典的盛况,从中可以清楚地看到当年清漪园的建筑模样,规模以及园林盛况。这大概是现存惟一一张全面描绘清漪园的图卷。汇集各种史料,利用三维动画特技,节目中首次复原了一个最接近真实的立体的清漪园,再现了世人从未见过的清漪园鼎盛时期的园林胜景。

  将专业观点

  融于形象化讲述之中

  全片采用故事串联的叙事结构和故事化的讲述风格,使知识性与趣味性相结合。为了改变以往一些历史文化类纪录片节奏缓慢枯燥沉闷的弱点,本片将一些权威性、学术性和专业性的观点融于形象化的讲述之中,尤其是片中涉及到大量的园林知识,以摄像机镜头代替观众的主观视线,以山水草木亭台楼阁作为观察对象,通过画面语言形象地诠释专业的理论,全片见观点不见专家。

  讲故事的同时

  兼顾文物展示功能

  颐和园所收藏的历史文物多达四万多件,而园中的亭台楼阁,花草树木本身也是文物。本片“历史重现”部分的拍摄,充分利用真实的场景和道具,在讲故事的同时,兼顾文物展示功能。可以说,在这些段落中,除了角色是扮演的,服装是现代的戏装之外,其余包括背景,环境、家具等都是珍贵的文物,可谓真正的“真实再现”。这种效果和价值是任何影视剧无法比拟的。本片在颐和园真实的环境中进行的历史重现,可以说为观众提供了一幅晚清皇家生活的全息图卷。

  张艺谋御用摄影

  赵小丁掌镜

  本次拍摄采用索尼高端的数字电影摄像机,是迄今为止图像质量最好的一部高清纪录片。《颐和园》的影像延续了《故宫》的精美风格,同时,又有突破和创新。与《故宫》一样,《颐和园》依然邀请著名摄影师赵小丁(张艺谋御用摄影,《英雄》《十面埋伏》的摄影)作为摄影指导。两度寒暑的大规模拍摄,穷尽各种视角,全面展示颐和园的极致之美。有些画面,甚至让每天身处园中的工作人员都感到惊奇,即使是老北京,也未必有缘看到。比如,多年一遇的西山晴雪,仅仅持续两个小时的西堤雾凇等。航拍队伍也赫赫有名,他们曾经拍摄过电影《哈里·波特》《007》系列电影。

  据了解,《颐和园》播出的同时,光碟及同名图书也将上市发行。《文汇报》 成风 成都商报实习记者 吴洋

  颐和园

  清代皇家园林颐和园,前身名为清漪园,始建于国力强盛的乾隆时期,在第二次鸦片战争中被英法联军纵火焚毁。光绪年间重建,改名为颐和园,成为慈禧晚年生活居住的主要场所。颐和园曾遭八国联军抢掠,抗战期间曾被日军占据。1928年,颐和园由皇家园林正式成为国家公园。现今保存园内的文献档案、文物收藏,记录了中国封建社会由鼎盛辉煌走向衰落灭亡的历史,也见证了几经沧桑的园林在新中国获得新生的历程。

  颐和园是中国目前保存最完整、规模最大的古代园林,是中国园林艺术的巅峰之作。

  《颐和园》分集简介

  第一集《清漪出锦绣》

  位于北京西北郊的一片湿地,在清乾隆年间发生了翻天覆地的变化。乾隆十四年,这里开始了一项水利建设,建成了京郊第一座水库和完整的水利系统。然而,人们没想到的是,这项工程的结束却只是另外一项宏大工程的开始。随着乾隆的一道道圣旨,曾经的湿地逐渐现出一片园林的雏形,这就是清漪园,颐和园的前身。

  第二集《昆明有乾坤》

  在清漪园里,流传着很多故事、传说和至今未解的谜团。佛香阁的所在地原本是一座九层的延寿塔,这个专为皇太后祝寿而设计的建筑,却在接近完工之际突然被拆除改建为佛香阁。据记载,建塔拆塔的花费几乎占据修园总花费的1/10。这背后隐藏着怎样的故事?

  第三集《绝艺筑颐和》

  1860年10月18日,英法联军的纵火,使北京西郊清漪园、圆明园等几座皇家园林变成一片废墟。光绪皇帝继位后,大权在握的慈禧太后又兴起修园之意。在光绪皇帝的生父醇亲王的支持下,修复园林终于成为现实。重建工程的总设计师雷廷昌没有想到,这会成为最后一座皇家园林。

  第四集《风雨梦乐园》

  颐和园见证了皇帝与太后的权力之争,改革与保守的政见之争带来的风风雨雨,也经历了园林历史上的又一次浩劫。八国联军的入侵之时,慈禧太后从这里出发向西逃难。颐和园,这座曾带给她的主人无比荣光和欢乐的所在地,却也经历着末世皇家的没落与无奈。

  第五集《禁苑演外交》

  一名叫卡尔的美国女画家为了给慈禧画像在颐和园流连了九个多月,与慈禧太后,与颐和园,有了史无前例的密切接触。而她所画的慈禧朝服像,在第二届世博会上引起了轰动。然而,中国代表团在世博会上的高调亮相,却成为清朝灭亡前的回光返照。

  第六集《沧桑续文明》

  1928年7月1日,颐和园从皇家园林正式成为国家公园。然而,社会的动荡,国力的衰微使得颐和园日益残破。

  1949年,颐和园账上只剩两毛钱。六十年之后的今天,颐和园里景色秀美、游人如织。清漪园,又有新的盛世传奇继续流传……

  1. D:\颐和园E05-SCG.mkv
  2.    General
  3.       Complete name : D:\颐和园E05-SCG.mkv
  4.       Format : Matroska
  5.       File size : 1.20 GiB
  6.       Duration : 45mn 38s
  7.       Overall bit rate : 3 758 Kbps
  8.       Encoded date : UTC 2011-01-04 12:48:09
  9.       Writing application : mkvmerge v3.0.0 ('Hang up your Hang-Ups') 编译于 Dec 12 2009 15:20:35
  10.       Writing library : libebml v0.7.9 + libmatroska v0.8.1
  11.    Video #1
  12.       ID : 1
  13.       Format : A··VC
  14.       Format/Info : Advanced Video Codec
  15.       Format profile : <A href="mailto:High@L4.1" target=_blank><FONT color=#0000ff>High@L4.1</FONT></A>
  16.       Format settings, CABAC : Yes
  17.       Format settings, ReFrames : 4 frames
  18.       Muxing mode : Container profile=Unknown@4.1
  19.       Codec ID : V_MPEG4/ISO/A··VC
  20.       Duration : 45mn 38s
  21.       Bit rate : 3 235 Kbps
  22.       Nominal bit rate : 3 312 Kbps
  23.       Width : 1 280 pixels
  24.       Height : 720 pixels
  25.       Display aspect ratio : 16:9
  26.       Frame rate : 25.000 fps
  27.       Resolution : 8 bits
  28.       Colorimetry : 4:2:0
  29.       Scan type : Progressive
  30.       Bits/(Pixel*Frame) : 0.140
  31.       Stream size : 1.03 GiB (86%)
  32.       Writing library : x264 core 98 r1649 20cbe10
  33.       Encoding settings : cabac=1 / ref=5 / deblock=1:-3:-3 / analyse=0x3:0x113 / me=umh / subme=9 / psy=1 / psy_rd=1.00:0.10 / mixed_ref=1 / me_range=32 / chroma_me=1 / trellis=2 / 8x8dct=1 / cqm=0 / deadzone=21,11 / fast_pskip=0 / chroma_qp_offset=-2 / threads=6 / sliced_threads=0 / nr=0 / decimate=0 / interlaced=0 / constrained_intra=0 / bframes=3 / b_pyramid=1 / b_adapt=2 / b_bias=0 / direct=1 / weightb=1 / weightp=2 / keyint=250 / keyint_min=25 / scenecut=40 / intra_refresh=0 / rc_lookahead=40 / rc=2pass / mbtree=1 / bitrate=3312 / ratetol=1.0 / qcomp=0.60 / qpmin=10 / qpmax=51 / qpstep=4 / cplxblur=20.0 / qblur=0.5 / ip_ratio=1.40 / aq=1:1.00
  34.       Language : English
  35.    Audio #2
  36.       ID : 2
  37.       Format : AC-3
  38.       Format/Info : Audio Coding 3
  39.       Codec ID : A_AC3
  40.       Duration : 45mn 38s
  41.       Bit rate mode : Constant
  42.       Bit rate : 448 Kbps
  43.       Channel(s) : 2 channels
  44.       Channel positions : L R
  45.       Sampling rate : 48.0 KHz
  46.       Stream size : 146 MiB (12%)
复制代码




游客,如果您要查看本帖隐藏内容请回复

升级为VIP会员可以无限制下载,且无需回复直接获取下载地址

相关帖子

发表于 2013-9-16 00:32:22 | 显示全部楼层
顶楼主啦..希望楼主多发精品好帖啦.....
回复 支持 反对

使用道具 举报

发表于 2013-9-16 08:11:51 | 显示全部楼层
好片共享!!!!!!!
最新电影
回复

使用道具 举报

发表于 2013-9-16 13:25:38 | 显示全部楼层
!!!!!!!!!!!!!!!!!!!!!!!!
回复

使用道具 举报

发表于 2013-9-21 09:00:17 | 显示全部楼层
谢谢楼主分享
回复 支持 反对

使用道具 举报

发表于 2013-9-21 09:19:22 | 显示全部楼层
太好啦!谢谢版主的分享!
回复 支持 反对

使用道具 举报

发表于 2013-9-21 09:27:26 | 显示全部楼层
!谢谢版主的分享!
回复 支持 反对

使用道具 举报

发表于 2013-9-21 09:31:50 | 显示全部楼层
和闪迪复古的风格
回复 支持 反对

使用道具 举报

发表于 2013-9-24 17:02:57 | 显示全部楼层
谢谢楼主分享
回复 支持 反对

使用道具 举报

发表于 2013-9-24 17:32:48 | 显示全部楼层
喜欢这样的纪录片啊
回复 支持 反对

使用道具 举报

发表于 2013-9-24 17:44:18 | 显示全部楼层
1111111111111111100000000000000000
回复 支持 反对

使用道具 举报

发表于 2013-9-28 00:12:08 | 显示全部楼层
woxialiakanyikanshigeshenm
回复 支持 反对

使用道具 举报

发表于 2013-9-29 18:39:22 | 显示全部楼层
多谢了多谢了楼主
回复 支持 反对

使用道具 举报

发表于 2013-10-2 22:25:25 | 显示全部楼层
经典东西,不顶不行。
回复 支持 反对

使用道具 举报

发表于 2013-10-3 21:02:52 | 显示全部楼层
谢谢分享。
回复

使用道具 举报

发表于 2013-10-8 21:34:11 | 显示全部楼层
【颐和园】(全六集)[中文字幕]2010.HDTV.720p.x264.AC3-CnSCG 7.2G [修改]
最新电影

最新电影

最新电影
最新电影

最新电影

最新电影

最新电影

最新电影
最新电影
回复 支持 反对

使用道具 举报

发表于 2013-10-10 08:29:13 | 显示全部楼层
谢谢分享~~~~~~~~~~~~~~~
最新电影
回复

使用道具 举报

发表于 2013-10-10 22:35:15 | 显示全部楼层
找的好苦啊!
回复 支持 反对

使用道具 举报

发表于 2013-10-15 13:30:28 | 显示全部楼层
哈哈哈哈哈哈哈哈哈哈哈哈哈哈哈哈哈哈好
回复 支持 反对

使用道具 举报

发表于 2013-10-30 02:27:41 | 显示全部楼层
下载收藏了
最新电影
回复 支持 反对

使用道具 举报

您需要登录后才可以回帖 登录 | 立即注册

本版积分规则

QQ|小黑屋|手机版|Archiver|金龙论坛   

GMT+8, 2019-1-18 21:50 , Processed in 2.002414 second(s), 33 queries , Gzip On.

快速回复 返回顶部 返回列表